<?xml version="1.0" standalone="no"?>
<!DOCTYPE svg PUBLIC "-//W3C//DTD SVG 1.1//EN" "http://www.w3.org/Graphics/SVG/1.1/DTD/svg11.dtd" >
<svg xmlns="http://www.w3.org/2000/svg">
<metadata>Generated by IcoMoon</metadata>
<defs>
<font id="IconFont" horiz-adv-x="1024">
<font-face units-per-em="1024" ascent="960" descent="-64" />
<missing-glyph horiz-adv-x="1024" />
<glyph unicode="&#x20;" horiz-adv-x="512" d="" />
<glyph unicode="&#xe900;" glyph-name="arrow_left" d="M358.4 605.867l-38.4 34.133-234.667-213.333 234.667-213.333 38.4 34.133-170.667 153.6h750.933v51.2h-750.933z" />
<glyph unicode="&#xe901;" glyph-name="arrow_right" d="M665.6 605.867l170.667-153.6h-750.933v-51.2h750.933l-170.667-153.6 38.4-34.133 234.667 213.333-234.667 213.333z" />
<glyph unicode="&#xe902;" glyph-name="calculate" d="M738.133 354.134h-51.2v-51.2h51.2v51.2zM686.933 102.4h51.2v51.2h-51.2v-51.2zM819.2 652.8h-217.6v-51.2h217.6v51.2zM85.333 853.334v-853.333h853.333v853.333h-853.333zM486.4 51.2h-349.867v349.867h349.867v-349.867zM486.4 452.267h-349.867v349.867h349.867v-349.867zM887.467 51.2h-349.867v349.867h349.867v-349.867zM887.467 452.267h-349.867v349.867h349.867v-349.867zM251.733 132.267l59.733 59.733 59.733-59.733 34.133 34.133-59.733 59.733 59.733 59.733-34.133 34.133-59.733-59.733-59.733 59.733-34.133-34.133 59.733-59.733-59.733-59.733 34.133-34.133zM819.2 251.734h-217.6v-51.2h217.6v51.2zM285.867 516.267h51.2v85.333h85.333v51.2h-85.333v85.333h-51.2v-85.333h-85.333v-51.2h85.333v-85.333z" />
<glyph unicode="&#xe903;" glyph-name="chevron_bottom" d="M512 384l-170.667 170.667-42.667-34.133 213.333-221.867 213.333 221.867-34.133 34.133z" />
<glyph unicode="&#xe904;" glyph-name="chevron_right" d="M384 605.867l170.667-179.2-170.667-179.2 34.133-34.133 221.867 213.333-221.867 213.333z" />
<glyph unicode="&#xe905;" glyph-name="chevron_top" d="M298.667 332.8l34.133-34.133 179.2 170.667 179.2-170.667 34.133 34.133-213.333 221.867z" />
<glyph unicode="&#xe906;" glyph-name="chevron-left" d="M605.867 640l-221.867-213.333 221.867-213.333 34.133 34.133-170.667 179.2 170.667 179.2z" />
<glyph unicode="&#xe907;" glyph-name="close" d="M691.2 640l-179.2-170.667-179.2 170.667-34.133-34.133 170.667-179.2-170.667-179.2 34.133-34.133 179.2 170.667 179.2-170.667 34.133 34.133-170.667 179.2 170.667 179.2z" />
<glyph unicode="&#xe908;" glyph-name="consultation" d="M836.267 853.334h-750.933v-554.667h102.4v-213.333l170.667 179.2v-64h315.733l166.4-200.533v200.533h98.133v311.467h-102.4v341.333zM358.4 332.8l-119.467-123.733v140.8h-102.4v452.267h652.8v-290.133h-430.933v-179.2zM887.467 460.8v-213.333h-102.4v-110.933l-93.867 110.933h-285.867v213.333h482.133z" />
<glyph unicode="&#xe909;" glyph-name="phone" d="M733.867 853.334h-448c-17.067 0-29.867-12.8-29.867-29.867v-789.333c0-17.067 12.8-34.133 29.867-34.133h448c17.067 0 29.867 12.8 29.867 34.133v789.333c4.267 17.067-12.8 29.867-29.867 29.867zM430.933 814.934h157.867c4.267 0 8.533-4.267 8.533-12.8 0-4.267-4.267-12.8-8.533-12.8h-157.867c-4.267 0-8.533 4.267-8.533 12.8s4.267 12.8 8.533 12.8zM512 38.4c-17.067 0-25.6 12.8-25.6 29.867s12.8 29.867 25.6 29.867c17.067 0 25.6-12.8 25.6-29.867s-12.8-29.867-25.6-29.867zM704 128h-388.267v640h388.267v-640z" />
<glyph unicode="&#xe90a;" glyph-name="benefit_honesty_and-objectivity" d="M697.6 679.467c-3.2 3.2-6.4 3.2-9.6 3.2h-348.8c-3.2 0-9.6 0-12.8-3.2l-259.2-182.4c0-3.2-3.2-6.4-3.2-9.6s3.2-6.4 6.4-9.6l432-332.8c3.2-6.4 6.4-6.4 9.6-6.4s6.4 0 9.6 3.2l432 332.8c3.2 3.2 6.4 6.4 6.4 9.6s-3.2 6.4-3.2 9.6l-259.2 185.6zM665.6 653.867l-44.8-131.2-80 131.2h124.8zM595.2 500.267h-166.4l83.2 137.6 83.2-137.6zM486.4 653.867l-80-131.2-44.8 131.2h124.8zM332.8 637.867l48-137.6h-262.4l214.4 137.6zM121.6 471.467h268.8l89.6-265.6-358.4 265.6zM512 202.667l-89.6 268.8h182.4l-92.8-268.8zM547.2 205.867l89.6 265.6h268.8l-358.4-265.6zM646.4 500.267l48 137.6 211.2-137.6h-259.2z" />
<glyph unicode="&#xe90b;" glyph-name="benefit_long_term_cooperation" d="M371.2 468.267h278.4c25.6 0 44.8 22.4 44.8 48v12.8c0 35.2-16 64-44.8 80-32 19.2-80 41.6-137.6 41.6s-105.6-22.4-140.8-41.6c-25.6-16-44.8-48-44.8-80v-12.8c3.2-28.8 22.4-48 44.8-48zM368 529.067c0 19.2 9.6 38.4 22.4 44.8 28.8 16 70.4 35.2 118.4 35.2s89.6-19.2 118.4-35.2c16-9.6 22.4-25.6 22.4-44.8v-12.8c0-3.2-3.2-6.4-3.2-6.4h-278.4c0 0-3.2 3.2-3.2 6.4v12.8zM512 669.867c57.6 0 102.4 44.8 102.4 102.4s-44.8 102.4-102.4 102.4c-57.6 0-102.4-44.8-102.4-102.4s44.8-102.4 102.4-102.4zM512 833.067c35.2 0 60.8-28.8 60.8-60.8s-25.6-60.8-60.8-60.8c-35.2 0-60.8 28.8-60.8 60.8s25.6 60.8 60.8 60.8zM777.6 183.467c57.6 0 102.4 44.8 102.4 102.4s-44.8 102.4-102.4 102.4c-57.6 0-102.4-44.8-102.4-102.4s44.8-102.4 102.4-102.4zM777.6 346.667c35.2 0 60.8-28.8 60.8-60.8s-28.8-60.8-60.8-60.8c-35.2 0-60.8 28.8-60.8 60.8s25.6 60.8 60.8 60.8zM387.2 119.467c-32 19.2-83.2 41.6-140.8 41.6s-105.6-22.4-140.8-41.6c-25.6-16-41.6-48-41.6-80v-12.8c0-25.6 19.2-48 44.8-48h278.4c25.6 0 44.8 22.4 44.8 48v12.8c0 32-19.2 64-44.8 80zM390.4 26.667c0-3.2-3.2-6.4-3.2-6.4h-278.4c0 0-3.2 3.2-3.2 6.4v12.8c0 19.2 9.6 38.4 22.4 44.8 28.8 16 70.4 35.2 118.4 35.2s89.6-19.2 118.4-35.2c16-9.6 22.4-25.6 22.4-44.8v-12.8zM915.2 119.467c-32 19.2-83.2 41.6-140.8 41.6s-105.6-22.4-140.8-41.6c-25.6-16-44.8-48-44.8-80v-12.8c0-25.6 19.2-48 44.8-48h278.4c25.6 0 44.8 22.4 44.8 48v12.8c3.2 32-12.8 64-41.6 80zM918.4 26.667c0-3.2-3.2-6.4-3.2-6.4h-278.4c0 0-3.2 3.2-3.2 6.4v12.8c0 19.2 9.6 38.4 22.4 44.8 28.8 16 70.4 35.2 118.4 35.2s89.6-19.2 118.4-35.2c16-9.6 22.4-25.6 22.4-44.8v-12.8zM246.4 183.467c57.6 0 102.4 44.8 102.4 102.4s-44.8 102.4-102.4 102.4c-57.6 0-102.4-44.8-102.4-102.4s48-102.4 102.4-102.4zM246.4 346.667c35.2 0 60.8-28.8 60.8-60.8s-28.8-60.8-60.8-60.8c-35.2 0-60.8 28.8-60.8 60.8s28.8 60.8 60.8 60.8zM614.4 183.467c6.4 0 12.8 3.2 16 6.4 6.4 9.6 6.4 22.4-3.2 28.8l-92.8 76.8v112c0 12.8-9.6 19.2-19.2 19.2-12.8 0-19.2-9.6-19.2-19.2v-112l-92.8-76.8c-9.6-6.4-9.6-19.2-3.2-28.8 3.2-6.4 9.6-6.4 16-6.4 3.2 0 9.6 0 12.8 3.2l89.6 70.4 89.6-70.4c-3.2-3.2 0-3.2 6.4-3.2z" />
<glyph unicode="&#xe90c;" glyph-name="benefit_mutual_benefit" d="M934.4 631.467l-153.6-51.2c-19.2-6.4-35.2-19.2-41.6-35.2 0-3.2-3.2-6.4-3.2-9.6-25.6 6.4-73.6 22.4-121.6 44.8-73.6 35.2-128 16-176-16-25.6 0-57.6-3.2-89.6-6.4-22.4-3.2-41.6-3.2-57.6-3.2 0 9.6-3.2 16-6.4 25.6-9.6 16-22.4 28.8-41.6 35.2l-153.6 48c-6.4 3.2-12.8 0-16-3.2-6.4 0-9.6-6.4-9.6-12.8v-339.2c0-9.6 9.6-16 19.2-16h54.4c22.4 0 44.8 9.6 57.6 25.6 6.4-6.4 16-9.6 25.6-16 22.4-16 44.8-32 57.6-38.4 70.4-54.4 153.6-108.8 169.6-121.6 16-9.6 44.8-19.2 64-19.2 9.6 0 28.8 0 44.8 12.8 16-6.4 32-6.4 48 0s28.8 16 35.2 32c16-3.2 32 0 48 6.4 12.8 6.4 25.6 16 28.8 28.8 12.8 0 28.8 3.2 41.6 12.8 19.2 12.8 25.6 32 25.6 51.2l48 22.4c12.8-16 35.2-28.8 60.8-28.8h54.4c9.6 0 19.2 6.4 19.2 16v339.2c0 6.4-3.2 9.6-6.4 12.8-12.8 3.2-19.2 3.2-25.6 3.2zM172.8 346.667c-6.4-12.8-19.2-22.4-35.2-22.4h-35.2v300.8l128-41.6c9.6-3.2 16-9.6 22.4-19.2 3.2-9.6 3.2-16 0-25.6l-80-192zM732.8 237.867c-6.4-3.2-16-6.4-19.2-3.2 0 0 0 0 0 0s0 0 0 0c-12.8 9.6-73.6 64-108.8 99.2-6.4 6.4-19.2 6.4-25.6 0s-6.4-16 0-25.6c9.6-9.6 76.8-73.6 105.6-96-6.4-3.2-12.8-9.6-16-9.6-12.8-6.4-25.6-3.2-28.8 0 0 0 0 0 0 0s0 0 0 0c-22.4 16-80 70.4-92.8 83.2-6.4 6.4-19.2 6.4-25.6 0s-9.6-16 0-25.6c0 0 54.4-54.4 86.4-80-3.2-6.4-9.6-16-16-19.2s-16-3.2-25.6 3.2c-25.6 19.2-80 73.6-89.6 83.2-6.4 6.4-19.2 6.4-25.6 0s-6.4-16 0-25.6c12.8-12.8 51.2-48 76.8-73.6-3.2 0-6.4 0-9.6 0-12.8 0-32 6.4-44.8 12.8s-96 64-166.4 118.4c-9.6 9.6-35.2 25.6-57.6 41.6-12.8 9.6-22.4 16-32 22.4l70.4 169.6c19.2 0 41.6 3.2 67.2 3.2 16 0 28.8 3.2 41.6 3.2-22.4-19.2-54.4-54.4-48-89.6 3.2-16 9.6-28.8 25.6-35.2 32-16 86.4-3.2 115.2 28.8 16 3.2 28.8 6.4 41.6 12.8 22.4-19.2 51.2-41.6 83.2-64 54.4-41.6 115.2-86.4 131.2-112 3.2-9.6-9.6-19.2-12.8-22.4zM764.8 292.267c-25.6 28.8-80 70.4-131.2 108.8-35.2 25.6-67.2 51.2-89.6 70.4-6.4 6.4-16 6.4-22.4 3.2-19.2-9.6-28.8-12.8-48-16-6.4 0-9.6-3.2-12.8-6.4-16-22.4-54.4-32-67.2-22.4-6.4 3.2-9.6 9.6-9.6 12.8-3.2 16 12.8 38.4 41.6 64 67.2 60.8 112 70.4 172.8 44.8 57.6-28.8 115.2-41.6 140.8-48 0-3.2 0-6.4 3.2-6.4l73.6-176-51.2-28.8zM921.6 292.267h-35.2c-16 0-28.8 9.6-35.2 22.4l-80 192c-3.2 9.6-3.2 19.2 0 25.6 3.2 9.6 12.8 16 22.4 19.2l128 41.6v-300.8z" />
<glyph unicode="&#xe90d;" glyph-name="benefit_1" d="M727.467 215.467h-117.333v36.267c66.133 32 110.933 100.267 115.2 177.067h14.933c23.467 0 44.8 21.333 44.8 44.8v34.133c8.533 6.4 14.933 14.933 14.933 25.6v59.733c0 17.067-12.8 29.867-29.867 29.867h-14.933c0 110.933-72.533 206.933-177.067 234.667-4.267 21.333-21.333 38.4-42.667 38.4h-29.867c-21.333 0-40.533-17.067-42.667-38.4-102.4-27.733-174.933-123.733-177.067-234.667h-14.933c-17.067 0-29.867-12.8-29.867-29.867v-59.733c0-10.667 6.4-21.333 14.933-25.6v-34.133c0-25.6 19.2-44.8 44.8-44.8h14.933c4.267-76.8 49.067-142.933 115.2-177.067v-36.267h-117.333c-100.267 0-185.6-89.6-185.6-198.4v-44.8c0-8.533 6.4-14.933 14.933-14.933h759.467c8.533 0 14.933 6.4 14.933 14.933v44.8c0 108.8-85.333 198.4-189.867 198.4zM669.867 183.467h29.867v-106.667h-29.867v106.667zM757.333 471.467c0-8.533-6.4-14.933-14.933-14.933h-14.933v44.8h29.867v-29.867zM580.267 827.734c87.467-27.733 145.067-108.8 147.2-202.667h-29.867v14.933c0 25.6-19.2 44.8-44.8 44.8h-72.533v142.933zM492.8 851.2c0 8.533 6.4 14.933 14.933 14.933h29.867c8.533 0 14.933-6.4 14.933-14.933v-166.4h-57.6v166.4zM654.933 652.8c8.533 0 14.933-6.4 14.933-14.933v-14.933h-294.4v14.933c0 8.533 6.4 14.933 14.933 14.933h264.533zM465.067 827.734v-142.933h-72.533c-23.467 0-44.8-21.333-44.8-44.8v-14.933h-29.867c0 91.733 59.733 174.933 147.2 202.667zM317.867 456.534h-14.933c-8.533 0-14.933 6.4-14.933 14.933v29.867h29.867v-44.8zM275.2 533.334v59.733h497.067v-59.733h-497.067zM347.733 441.6v59.733h349.867v-59.733c0-100.267-78.933-181.333-174.933-181.333s-174.933 81.067-174.933 181.333zM580.267 238.934v-38.4c0-34.133-25.6-59.733-57.6-59.733s-57.6 27.733-57.6 59.733v38.4c19.2-6.4 38.4-8.533 57.6-8.533s40.533 2.133 57.6 8.533zM405.333 183.467h29.867c6.4-42.667 42.667-74.667 85.333-74.667s78.933 32 85.333 74.667h34.133v-106.667h-234.667v106.667zM347.733 183.467h29.867v-106.667h-29.867v106.667zM288 32v-44.8h-130.133v29.867c0 91.733 72.533 166.4 160 166.4v-108.8c-17.067-6.4-29.867-23.467-29.867-42.667zM727.467-12.8h-409.6v44.8c0 8.533 6.4 14.933 14.933 14.933h379.733c8.533 0 14.933-6.4 14.933-14.933v-44.8zM887.467-12.8h-132.267v44.8c0 19.2-12.8 36.267-29.867 42.667v108.8c89.6 0 160-74.667 160-166.4v-29.867z" />
<glyph unicode="&#xe90e;" glyph-name="benefit_2" d="M392.533 625.067l-23.467-132.267c0-6.4 2.133-12.8 6.4-14.933 4.267-4.267 10.667-4.267 14.933-2.133l125.867 64 125.867-64c4.267-2.133 10.667-2.133 14.933 2.133s6.4 8.533 6.4 14.933l-23.467 132.267 100.267 93.867c4.267 4.267 6.4 10.667 4.267 17.067s-6.4 10.667-12.8 10.667l-140.8 19.2-61.867 121.6c-2.133 6.4-8.533 8.533-12.8 8.533-6.4 0-10.667-2.133-12.8-8.533l-61.867-121.6-142.933-19.2c-6.4 0-10.667-4.267-12.8-10.667s0-12.8 4.267-17.067l102.4-93.867zM452.267 736c4.267 0 8.533 4.267 10.667 8.533l53.333 102.4 53.333-102.4c2.133-4.267 6.4-8.533 10.667-8.533l115.2-17.067-83.2-76.8c-4.267-4.267-6.4-8.533-4.267-14.933l19.2-110.933-104.533 53.333c-4.267 2.133-8.533 2.133-12.8 0l-104.533-53.333 19.2 110.933c0 4.267 0 10.667-4.267 14.933l-83.2 76.8 115.2 17.067zM699.733 467.2c-2.133-6.4 0-12.8 4.267-17.067l55.467-53.333-12.8-76.8c0-6.4 2.133-12.8 6.4-14.933 4.267-4.267 10.667-4.267 17.067-2.133l68.267 36.267 68.267-36.267c4.267-2.133 10.667-2.133 17.067 2.133 4.267 4.267 6.4 8.533 6.4 14.933l-12.8 76.8 55.467 53.333c4.267 4.267 6.4 10.667 4.267 17.067s-6.4 10.667-12.8 10.667l-76.8 10.667-34.133 70.4c-2.133 4.267-8.533 8.533-12.8 8.533s-10.667-2.133-12.8-8.533l-38.4-70.4-76.8-10.667c-6.4 0-10.667-4.267-12.8-10.667zM800 458.667c4.267 0 8.533 4.267 10.667 8.533l23.467 49.067 23.467-49.067c2.133-4.267 6.4-8.533 10.667-8.533l53.333-8.533-38.4-38.4c-4.267-4.267-6.4-8.533-4.267-14.933l8.533-53.333-49.067 25.6c-4.267 2.133-10.667 2.133-14.933 0l-49.067-25.6 8.533 53.333c0 4.267 0 10.667-4.267 14.933l-32 40.533 53.333 6.4zM904.533 51.2l66.133 68.267c4.267 4.267 6.4 10.667 4.267 17.067s-8.533 10.667-14.933 10.667h-121.6v61.867c0 17.067-12.8 32-29.867 32h-584.533c-17.067 0-29.867-14.933-29.867-32v-61.867h-121.6c-6.4 0-10.667-4.267-14.933-10.667-2.133-6.4 0-12.8 4.267-17.067l66.133-68.267-66.133-66.133c-4.267-4.267-6.4-10.667-4.267-17.067s8.533-10.667 14.933-10.667h275.2c8.533 0 14.933 6.4 14.933 14.933v78.933h305.067v-78.933c0-8.533 6.4-14.933 14.933-14.933h275.2c6.4 0 12.8 4.267 14.933 10.667s0 12.8-4.267 17.067l-64 66.133zM332.8-10.666h-224l51.2 51.2c2.133 2.133 4.267 6.4 4.267 10.667s-2.133 8.533-4.267 10.667l-51.2 51.2h85.333v-32c0-17.067 12.8-32 29.867-32h106.667v-59.733zM224 83.2v125.867h580.267v-125.867h-580.267zM699.733-10.666v61.867h106.667c17.067 0 29.867 14.933 29.867 32v32h85.333l-51.2-51.2c-2.133-2.133-4.267-6.4-4.267-10.667s2.133-8.533 4.267-10.667l51.2-51.2h-221.867zM117.333 396.8l-12.8-76.8c0-6.4 2.133-12.8 6.4-14.933 4.267-4.267 10.667-4.267 17.067-2.133l68.267 36.267 68.267-36.267c4.267-2.133 10.667-2.133 17.067 2.133 4.267 4.267 6.4 8.533 6.4 14.933l-12.8 76.8 55.467 53.333c4.267 4.267 6.4 10.667 4.267 17.067s-6.4 10.667-12.8 10.667l-76.8 10.667-34.133 70.4c-2.133 4.267-8.533 8.533-12.8 8.533-6.4 0-10.667-2.133-12.8-8.533l-34.133-70.4-76.8-10.667c-6.4 0-10.667-4.267-12.8-10.667s0-12.8 4.267-17.067l51.2-53.333zM157.867 458.667c4.267 0 8.533 4.267 10.667 8.533l23.467 49.067 23.467-49.067c2.133-4.267 6.4-8.533 10.667-8.533l53.333-8.533-38.4-38.4c-4.267-4.267-6.4-8.533-4.267-14.933l8.533-53.333-49.067 25.6c-4.267 2.133-10.667 2.133-14.933 0l-49.067-25.6 8.533 53.333c0 4.267 0 10.667-4.267 14.933l-38.4 38.4 59.733 8.533z" />
<glyph unicode="&#xe90f;" glyph-name="benefit_3" d="M893.867 810.667c-2.133 4.267-6.4 8.533-12.8 8.533h-721.067c-4.267 0-8.533-4.267-12.8-8.533l-96-196.267c-2.133-4.267-2.133-8.533 2.133-12.8l456.533-588.8c0 0 0 0 0 0 0-2.133 2.133-2.133 4.267-2.133 0 0 0 0 2.133 0s4.267-2.133 6.4-2.133c2.133 0 4.267 0 4.267 2.133 0 0 0 0 2.133 0s2.133 2.133 2.133 2.133c0 0 0 0 0 0l456.533 588.8c2.133 4.267 4.267 8.533 2.133 12.8l-96 196.267zM853.333 791.467l-151.467-164.267-149.333 164.267h300.8zM672 622.934h-300.8l149.333 164.267 151.467-164.267zM490.667 791.467l-149.333-164.267-151.467 164.267h300.8zM164.267 782.934l147.2-160h-224l76.8 160zM91.733 597.334h238.933l155.733-509.867-394.667 509.867zM520.533 66.134l-162.133 531.2h324.267l-162.133-531.2zM554.667 87.467l157.867 509.867h238.933l-396.8-509.867zM731.733 622.934l147.2 160 76.8-160h-224z" />
<glyph unicode="&#xe910;" glyph-name="benefit_4" d="M819.2 896h-32c-14.933 0-27.733-4.267-38.4-12.8-2.133 6.4-8.533 12.8-17.067 12.8h-460.8c-8.533 0-14.933-6.4-14.933-12.8-10.667 8.533-25.6 12.8-40.533 12.8h-32c-53.333 0-98.133-44.8-98.133-100.267 0-40.533 23.467-76.8 59.733-91.733l96-51.2c36.267-19.2 59.733-57.6 59.733-100.267 0-8.533-6.4-14.933-14.933-14.933h-14.933c-8.533 0-14.933 6.4-14.933 14.933s6.4 14.933 14.933 14.933v32c-25.6 0-46.933-21.333-46.933-46.933s21.333-46.933 46.933-46.933h14.933c25.6 0 46.933 21.333 46.933 46.933 0 6.4 0 12.8-2.133 19.2 23.467-38.4 51.2-74.667 83.2-108.8 2.133-2.133 6.4-4.267 10.667-4.267h8.533c6.4-8.533 21.333-32 21.333-61.867 0-32-17.067-76.8-25.6-93.867h-66.133c-8.533 0-14.933-6.4-14.933-14.933v-46.933h-14.933c-8.533 0-14.933-6.4-14.933-14.933v-172.8h-29.867c-8.533 0-14.933-6.4-14.933-14.933v-61.867c0-8.533 6.4-14.933 14.933-14.933h430.933c8.533 0 14.933 6.4 14.933 14.933v61.867c0 8.533-6.4 14.933-14.933 14.933h-29.867v172.8c0 8.533-6.4 14.933-14.933 14.933h-14.933v46.933c0 8.533-6.4 14.933-14.933 14.933h-68.267c-8.533 17.067-25.6 61.867-25.6 93.867 0 29.867 14.933 53.333 23.467 61.867h8.533c4.267 0 8.533 2.133 10.667 4.267 32 32 59.733 68.267 83.2 108.8 0-6.4-2.133-12.8-2.133-19.2 0-25.6 21.333-46.933 46.933-46.933h14.933c25.6 0 46.933 21.333 46.933 46.933s-21.333 46.933-46.933 46.933v-32c8.533 0 14.933-6.4 14.933-14.933s-6.4-14.933-14.933-14.933h-14.933c-8.533 0-14.933 6.4-14.933 14.933 0 42.667 23.467 81.067 59.733 100.267l93.867 51.2c36.267 14.933 61.867 51.2 61.867 91.733-4.267 55.467-49.067 100.267-102.4 100.267zM256 680.534l-98.133 51.2c-25.6 10.667-42.667 36.267-42.667 64 0 38.4 29.867 68.267 68.267 68.267h32c21.333 0 38.4-17.067 38.4-38.4 0-12.8-10.667-23.467-23.467-23.467s-23.467 10.667-23.467 23.467v8.533h-29.867v-8.533c0-29.867 23.467-55.467 53.333-55.467 10.667 0 19.2 2.133 27.733 8.533 6.4-42.667 17.067-85.333 32-125.867-8.533 10.667-21.333 21.333-34.133 27.733zM701.867 19.2v-32h-401.067v32h401.067zM654.933 206.934v-155.733h-307.2v155.733h307.2zM625.067 270.934v-32h-247.467v32h247.467zM469.333 458.667h64c-8.533-14.933-17.067-36.267-17.067-61.867 0-32 12.8-70.4 23.467-93.867h-76.8c8.533 23.467 23.467 61.867 23.467 93.867 0 23.467-8.533 44.8-17.067 61.867zM571.733 488.534h-140.8c-93.867 98.133-145.067 226.133-145.067 362.667v12.8h430.933v-12.8c0-136.533-51.2-264.533-145.067-362.667zM842.667 731.734l-96-51.2c-12.8-6.4-25.6-17.067-36.267-27.733 14.933 40.533 25.6 83.2 32 125.867 8.533-4.267 17.067-8.533 27.733-8.533 29.867 0 53.333 25.6 53.333 55.467v8.533h-29.867v-8.533c0-12.8-10.667-23.467-23.467-23.467s-23.467 10.667-23.467 23.467c0 21.333 17.067 38.4 38.4 38.4h32c36.267 0 68.267-29.867 68.267-68.267 2.133-27.733-14.933-53.333-42.667-64z" />
<glyph unicode="&#xe911;" glyph-name="benefit_5" d="M437.333 462.934h-290.133c-8.533 0-14.933-6.4-14.933-14.933s6.4-14.933 14.933-14.933h288c8.533 0 14.933 6.4 14.933 14.933 2.133 8.533-4.267 14.933-12.8 14.933zM556.8 550.4h-409.6c-8.533 0-14.933-6.4-14.933-14.933s6.4-14.933 14.933-14.933h409.6c8.533 0 14.933 6.4 14.933 14.933s-6.4 14.933-14.933 14.933zM936.533 550.4h-273.067v132.267c0 23.467-21.333 42.667-44.8 42.667h-531.2c-23.467 0-44.8-19.2-44.8-42.667v-290.133c0-23.467 21.333-42.667 44.8-42.667h44.8v-72.533c0-4.267 2.133-8.533 4.267-10.667 6.4-6.4 14.933-6.4 21.333 0l85.333 83.2h115.2v-130.133c0-23.467 21.333-42.667 44.8-42.667h373.333l85.333-83.2c2.133-2.133 6.4-4.267 10.667-4.267 8.533 0 14.933 6.4 14.933 14.933v72.533h44.8c25.6 0 44.8 19.2 44.8 42.667v288c4.267 23.467-17.067 42.667-40.533 42.667zM238.933 375.467c-4.267 0-8.533-2.133-10.667-4.267l-64-61.867v53.333c0 8.533-6.4 14.933-14.933 14.933h-61.867c-8.533 0-14.933 6.4-14.933 14.933v290.133c0 8.533 6.4 14.933 14.933 14.933h529.067c8.533 0 14.933-6.4 14.933-14.933v-290.133c0-8.533-6.4-14.933-14.933-14.933h-377.6zM951.467 215.467c0-8.533-6.4-14.933-14.933-14.933h-61.867c-8.533 0-14.933-6.4-14.933-14.933v-51.2l-64 61.867c-2.133 2.133-6.4 4.267-10.667 4.267h-379.733c-8.533 0-14.933 6.4-14.933 14.933v130.133h226.133c25.6 0 44.8 19.2 44.8 42.667v130.133h273.067c8.533 0 14.933-6.4 14.933-14.933v-288zM556.8 637.867h-409.6c-8.533 0-14.933-6.4-14.933-14.933s6.4-14.933 14.933-14.933h409.6c8.533 0 14.933 6.4 14.933 14.933s-6.4 14.933-14.933 14.933z" />
<glyph unicode="&#xe912;" glyph-name="benefit_6" d="M872.533 288v32h-108.8v-36.267c-14.933 10.667-38.4 17.067-61.867 17.067-32 0-61.867-10.667-78.933-29.867-6.4-6.4-14.933-10.667-23.467-12.8l-93.867-25.6c-10.667-2.133-21.333-10.667-25.6-19.2-2.133-2.133-2.133-8.533-4.267-12.8l-155.733 23.467c-21.333 2.133-40.533-8.533-46.933-27.733-8.533-21.333 4.267-44.8 25.6-51.2l268.8-91.733c8.533-2.133 19.2-4.267 27.733-4.267 6.4 0 12.8 0 19.2 2.133l149.333 36.267v-42.667h108.8v29.867h108.8v213.333h-108.8zM761.6 117.334l-155.733-38.4c-8.533-2.133-19.2-2.133-27.733 2.133l-268.8 89.6c-6.4 2.133-8.533 8.533-8.533 12.8 2.133 4.267 8.533 8.533 12.8 8.533l166.4-25.6c8.533-8.533 21.333-14.933 34.133-14.933 2.133 0 138.667 10.667 138.667 10.667l-2.133 29.867-134.4-12.8c-4.267 0-8.533 2.133-10.667 8.533-2.133 2.133-2.133 6.4 0 8.533s2.133 2.133 6.4 4.267l93.867 25.6c14.933 4.267 27.733 12.8 38.4 25.6s32 19.2 55.467 19.2c34.133 0 61.867-17.067 61.867-38.4v-115.2zM840.533 72.534h-46.933v215.467h46.933v-215.467zM949.333 104.534h-78.933v153.6h78.933v-153.6zM407.467 490.667c10.667-36.267 46.933-64 89.6-64 51.2 0 93.867 40.533 93.867 91.733 0 12.8-2.133 25.6-8.533 36.267l2.133 2.133 14.933 23.467c4.267 6.4 8.533 12.8 8.533 19.2v72.533c0 12.8-6.4 27.733-19.2 36.267l-91.733 68.267c-17.067 12.8-38.4 17.067-57.6 14.933l-177.067-23.467v42.667h-110.933v-29.867h-108.8v-215.467h108.8v-32h108.8v21.333l85.333-49.067 61.867-14.933zM151.467 595.2h-76.8v153.6h78.933v-153.6zM230.4 763.734v-198.4h-46.933v215.467h46.933v-17.067zM497.067 456.534c-21.333 0-38.4 8.533-49.067 25.6 17.067 0 34.133 10.667 38.4 27.733 6.4 19.2-2.133 42.667-23.467 51.2l-8.533 2.133c10.667 10.667 25.6 17.067 42.667 17.067 34.133 0 61.867-27.733 61.867-61.867 2.133-34.133-25.6-61.867-61.867-61.867zM422.4 576l-4.267 2.133-2.133 2.133c-2.133 0-6.4 2.133-8.533 6.4l-42.667 51.2 78.933 34.133c2.133 2.133 8.533 2.133 12.8 0l55.467-21.333v-34.133l-2.133-6.4c-4.267 2.133-8.533 2.133-12.8 2.133-29.867-2.133-57.6-14.933-74.667-36.267zM262.4 736l179.2 25.6c12.8 2.133 25.6-2.133 34.133-8.533l91.733-68.267c4.267-2.133 6.4-8.533 6.4-12.8v-70.4l-12.8-19.2c-6.4 6.4-14.933 12.8-23.467 17.067l2.133 8.533v38.4c0 12.8-8.533 25.6-21.333 29.867l-55.467 21.333c-10.667 4.267-25.6 4.267-36.267 0l-78.933-34.133c-8.533-2.133-14.933-10.667-19.2-21.333-2.133-8.533 0-19.2 6.4-25.6l42.667-51.2c6.4-8.533 14.933-12.8 25.6-14.933l44.8-19.2c4.267-2.133 8.533-8.533 6.4-12.8 0-6.4-6.4-6.4-10.667-6.4l-83.2 23.467-98.133 53.333v147.2z" />
<glyph unicode="&#xe913;" glyph-name="benefit_7" d="M966.4 102.4h-725.333v202.667l32 17.067c6.4-4.267 14.933-8.533 23.467-8.533 21.333 0 38.4 17.067 38.4 36.267 0 21.333-17.067 36.267-38.4 36.267s-38.4-17.067-38.4-36.267c0 0 0 0 0 0 0-2.133 0-2.133 0-4.267l-38.4-19.2c-4.267-2.133-8.533-6.4-8.533-12.8v-211.2h-153.6c-8.533 0-14.933-6.4-14.933-14.933v-117.333c0-6.4 6.4-12.8 14.933-12.8s14.933 6.4 14.933 14.933v102.4h881.067v-102.4c0-8.533 6.4-14.933 14.933-14.933s14.933 6.4 14.933 14.933v117.333c-2.133 6.4-8.533 12.8-17.067 12.8zM288 349.867c0 4.267 4.267 8.533 8.533 8.533 0 0 0 0 0 0 4.267 0 8.533-4.267 8.533-8.533s-4.267-8.533-8.533-8.533c-4.267 0-8.533 2.133-8.533 8.533 0-2.133 0-2.133 0 0zM706.133 113.067c8.533 0 14.933 6.4 14.933 14.933v157.867c0 8.533-6.4 14.933-14.933 14.933h-390.4c-8.533 0-14.933-6.4-14.933-14.933v-157.867c0-8.533 6.4-14.933 14.933-14.933s14.933 6.4 14.933 14.933v145.067h362.667v-145.067c-2.133-8.533 4.267-14.933 12.8-14.933zM121.6 113.067c0 0 0 0 0 0 2.133 0 2.133 0 0 0 8.533 0 14.933 4.267 17.067 12.8l29.867 213.333c2.133 14.933 12.8 25.6 25.6 32l170.667 53.333 4.267-46.933c0-4.267 4.267-8.533 8.533-10.667l25.6-14.933-4.267-14.933c-2.133-8.533 2.133-14.933 8.533-19.2 2.133 0 2.133 0 4.267 0 6.4 0 12.8 4.267 12.8 8.533l8.533 25.6c2.133 6.4 0 14.933-6.4 17.067l-29.867 14.933-4.267 49.067 14.933 12.8 34.133-76.8 19.2-42.667c4.267-6.4 12.8-10.667 19.2-6.4s10.667 10.667 6.4 17.067l-14.933 34.133 36.267 38.4 36.267-34.133-17.067-36.267c-2.133-6.4 0-14.933 8.533-19.2 6.4-2.133 14.933 0 19.2 6.4l53.333 119.467 14.933-12.8-4.267-49.067-29.867-14.933c-6.4-4.267-8.533-10.667-6.4-17.067l8.533-25.6c2.133-8.533 10.667-10.667 19.2-8.533s10.667 10.667 8.533 19.2l-4.267 14.933 25.6 14.933c4.267 2.133 6.4 6.4 8.533 10.667l4.267 46.933 170.667-53.333c14.933-4.267 23.467-17.067 25.6-32l29.867-213.333c0-6.4 6.4-12.8 14.933-12.8 0 0 2.133 0 2.133 0 8.533 0 12.8 8.533 12.8 17.067l-29.867 213.333c-4.267 25.6-21.333 46.933-46.933 55.467l-185.6 59.733-32 25.6-10.667 14.933v44.8c27.733 38.4 46.933 81.067 55.467 128 4.267 8.533 10.667 17.067 12.8 25.6 2.133 4.267 4.267 8.533 4.267 12.8 27.733 98.133-21.333 155.733-23.467 157.867s-6.4 4.267-10.667 4.267c-4.267 0-8.533-2.133-10.667-4.267 0 0-14.933-14.933-27.733-12.8-8.533 2.133-17.067 4.267-25.6 6.4-4.267 2.133-8.533 2.133-14.933 4.267-21.333 4.267-44.8 8.533-70.4 8.533-38.4 0-130.133-8.533-151.467-81.067-10.667-32-8.533-66.133 4.267-98.133 2.133-8.533 6.4-17.067 12.8-25.6 8.533-49.067 27.733-93.867 59.733-132.267v-40.533l-12.8-12.8-34.133-27.733-185.6-59.733c-25.6-8.533-42.667-29.867-46.933-55.467l-29.867-213.333c0-6.4 6.4-14.933 12.8-14.933zM462.933 407.467l-29.867 66.133 55.467-38.4-25.6-27.733zM509.867 454.4l-66.133 46.933v8.533c19.2-14.933 40.533-21.333 64-23.467 25.6 0 49.067 8.533 68.267 25.6v-10.667l-66.133-46.933zM558.933 409.6l-25.6 25.6 55.467 38.4-29.867-64zM384 678.4c0 0 0 0 0 0 0 2.133 0 2.133-2.133 2.133 0 0 0 2.133-2.133 2.133 0 0 0 0 0 0-4.267 6.4-8.533 12.8-10.667 21.333-10.667 25.6-10.667 53.333-2.133 78.933 17.067 55.467 91.733 61.867 123.733 61.867 21.333 0 42.667-2.133 64-8.533 4.267-2.133 8.533-2.133 12.8-4.267 8.533-4.267 19.2-6.4 27.733-8.533 14.933-2.133 29.867 2.133 42.667 10.667 19.2-36.267 23.467-81.067 8.533-119.467 0-2.133 0-2.133-2.133-4.267-4.267 12.8-14.933 23.467-27.733 27.733-6.4 2.133-14.933 2.133-21.333-2.133-29.867-17.067-64-23.467-98.133-19.2-25.6 2.133-51.2 8.533-74.667 19.2-6.4 4.267-14.933 0-19.2-6.4s-8.533-12.8-14.933-19.2c-6.4-6.4-4.267-14.933 2.133-19.2s14.933-4.267 21.333 2.133c4.267 6.4 8.533 10.667 12.8 14.933 23.467-8.533 46.933-12.8 72.533-17.067 38.4-6.4 78.933 2.133 113.067 21.333 0 0 4.267-2.133 12.8-17.067 2.133-6.4 6.4-12.8 8.533-21.333-14.933-76.8-64-160-123.733-160-57.6 2.133-108.8 85.333-123.733 164.267z" />
<glyph unicode="&#xe914;" glyph-name="benefit_8" d="M974.933 582.4c-2.133 12.8-12.8 21.333-25.6 21.333l-68.267-2.133c-12.8 0-23.467-8.533-25.6-21.333l-2.133-8.533-34.133 128c-6.4 27.733-34.133 46.933-64 46.933h-482.133c-29.867 0-57.6-19.2-66.133-46.933l-34.133-128-2.133 8.533c-2.133 12.8-12.8 21.333-25.6 21.333l-68.267 2.133c-12.8 0-23.467-8.533-25.6-21.333l-8.533-44.8c-2.133-6.4 0-12.8 4.267-19.2s10.667-8.533 19.2-8.533l64-6.4-42.667-89.6c-8.533-14.933-10.667-34.133-10.667-51.2v-61.867c-4.267-4.267-4.267-10.667-4.267-17.067v-61.867c0-6.4 2.133-12.8 4.267-17.067v-74.667c0-23.467 21.333-44.8 46.933-44.8h59.733c25.6 0 46.933 19.2 46.933 44.8v57.6h567.467v-57.6c0-23.467 21.333-44.8 46.933-44.8h59.733c25.6 0 46.933 19.2 46.933 44.8v74.667c4.267 4.267 4.267 10.667 4.267 17.067v61.867c0 6.4-2.133 12.8-4.267 17.067v61.867c0 17.067-4.267 36.267-10.667 51.2l-42.667 89.6 64 6.4c6.4 0 12.8 4.267 19.2 8.533 4.267 6.4 6.4 12.8 4.267 19.2l-10.667 44.8c0 0 0 0 0 0zM238.933 691.2c4.267 14.933 19.2 25.6 36.267 25.6h480c17.067 0 32-10.667 36.267-25.6l42.667-153.6h-637.867l42.667 153.6zM76.8 539.734l6.4 34.133 59.733-2.133 4.267-38.4-70.4 6.4zM108.8 362.667c0 12.8 2.133 25.6 8.533 38.4l113.067-32c2.133 0 4.267-2.133 4.267-4.267v-44.8h-125.867v42.667zM198.4 130.134c0-8.533-6.4-14.933-14.933-14.933h-59.733c-8.533 0-14.933 6.4-14.933 14.933v57.6h91.733v-57.6zM919.467 130.134c0-8.533-6.4-14.933-14.933-14.933h-59.733c-8.533 0-14.933 6.4-14.933 14.933v57.6h91.733v-57.6zM925.867 283.734v-61.867c0-2.133-2.133-4.267-4.267-4.267h-812.8c-2.133 0-4.267 2.133-4.267 4.267v61.867c0 2.133 2.133 4.267 4.267 4.267h812.8c2.133 0 4.267-2.133 4.267-4.267zM919.467 362.667v-44.8h-125.867v44.8c0 2.133 2.133 4.267 4.267 4.267l113.067 32c6.4-10.667 8.533-23.467 8.533-36.267zM898.133 428.8l-108.8-32c-14.933-4.267-25.6-17.067-25.6-32v-44.8h-499.2v42.667c0 14.933-10.667 27.733-25.6 32l-110.933 32 36.267 76.8c0 2.133 2.133 2.133 4.267 2.133h686.933c2.133 0 4.267-2.133 4.267-2.133l38.4-74.667zM881.067 533.334l6.4 40.533 59.733 2.133 6.4-34.133-72.533-8.533z" />
</font>
</defs>
</svg>
